piki flac md5 i cue (plyta nirvany)

31.12.2003
16:02
[1]
tomaszgora [ Konsul ]
piki flac md5 i cue (plyta nirvany)

problem jest taki: sciaganalem sobie plyte nirvany z bittorrenta i mam 4 pliki : *.flac, *.md5, *.cue i *.txt. korzystajac z deamon toolsa nic nie moge zrobic; jak zostawiam format flac to wyskakuje: "Unable to mount image. Cue seet:line 3 - file not accassable." jak ten plik flac zmienie na bin jest to samo.
tak wyglada plik cue
PERFORMER "Unknown Artist"
TITLE "Unknown Title"
FILE "1991 10-14-91 ANAM-DAT1.wav" WAVE
TRACK 01 AUDIO
TITLE "Track01"
PERFORMER "Unknown Artist"
INDEX 01 00:00:00
TRACK 02 AUDIO
TITLE "Track02"
PERFORMER "Unknown Artist"
INDEX 01 03:20:00
TRACK 03 AUDIO
TITLE "Track03"
PERFORMER "Unknown Artist"
INDEX 01 06:22:00
TRACK 04 AUDIO
TITLE "Track04"
PERFORMER "Unknown Artist"
INDEX 01 13:57:00
TRACK 05 AUDIO
TITLE "Track05"
PERFORMER "Unknown Artist"
INDEX 01 18:11:00
TRACK 06 AUDIO
TITLE "Track06"
PERFORMER "Unknown Artist"
INDEX 01 20:34:00
TRACK 07 AUDIO
TITLE "Track07"
PERFORMER "Unknown Artist"
INDEX 01 23:42:00

jak zmienie to w 3 linijce na bin albo flac (w nazwie) to wyskakuje w deamontoolse ze cos z formatem jest nie tak. macie jakies propozycje ?? moze inny prog ??
31.12.2003
16:34
[2]
tomaszgora [ Konsul ]

^UP^
31.12.2003
16:35
[3]
insmac [ Konsul ]

Link.
wątek: piki flac md5 i cue (plyta nirvany)
© 2000-2017 GRY-OnLine S.A. game guide